About.Ray.2015.BRRip.XviD.AC3-iFT[PRiME]

DOWNLOAD TORRENT DOWNLOAD DOWNLOAD ANONYMOUS

Posted on January 12, 2017 in Movies » Misc , verified torrent

Size: 1.57 GB , Seeds: 0 , Peers: 0 ( Updated April 21, 2017 - Refresh )

Could not find any peer statistics from any torrent tracker.
This does not mean the torrent is dead.

* Download via Magnet Link , * To download files you need a Bittorrent Client , * How to download torrents from Bit Torrent Scene?

Loading...

Scrape History ( seeds + peers )

Internal Files

About.Ray.2015.BRRip.XviD.AC3-iFT[PRiME]
About.Ray.2015.BRRip.XviD.AC3-iFT[PRiME].avi   1.53 GB
Please Support!! Read More!!!.txt   232 Byte
Sample[PRiME].avi   17.66 MB
Torrent Downloaded From 1337x.to.txt   69 Byte
Torrent Downloaded From ExtraTorrent.cc.txt   446 Byte
Torrent downloaded from AhaShare.com.txt   59 Byte

Hash Code

c5a2c854d61ef7ea654201b76dc251e9c771c367

Description


About.Ray.2015.BRRip.XviD.AC3-iFT[PRiME]

ImDb: http://www.imdb.com/title/tt4158624

SCREENSHOT

Complete name : About.Ray.2015.BRRip.XviD.AC3-iFT[PRiME].avi
Format : AVI
Format/Info : Audio Video Interleave
Format profile : OpenDML
Format settings : rec
File size : 1.53 GiB
Duration : 1 h 32 min
Overall bit rate : 2 370 kb/s
Writing application : AVI-Mux GUI 1.17.8.3, Feb 16 201019:42:50

Video
ID : 0
Format : MPEG-4 Visual
Format profile : Advanced [email protected]/* */
Format settings, BVOP : 2
Format settings, QPel : No
Format settings, GMC : No warppoints
Format settings, Matrix : Default (H.263)
Muxing mode : Packed bitstream
Codec ID : XVID
Codec ID/Hint : XviD
Duration : 1 h 32 min
Bit rate : 1 916 kb/s
Width : 720 pixels
Height : 384 pixels
Display aspect ratio : 1.85:1
Frame rate : 23.976 (23976/1000) FPS
Color space : YUV
Chroma subsampling : 4:2:0
Bit depth : 8 bits
Scan type : Progressive
Compression mode : Lossy
Bits/(Pixel*Frame) : 0.289
Stream size : 1.24 GiB (81%)
Writing library : XviD 73

Audio
ID : 1
Format : AC-3
Format/Info : Audio Coding 3
Mode extension : CM (complete main)
Format settings, Endianness : Big
Codec ID : 2000
Duration : 1 h 32 min
Bit rate mode : Constant
Bit rate : 448 kb/s
Channel(s) : 6 channels
Channel positions : Front: L C R, Side: L R, LFE
Sampling rate : 48.0 kHz
Frame rate : 31.250 FPS (1536 spf)
Compression mode : Lossy
Stream size : 297 MiB (19%)
Alignment : Aligned on interleaves
Interleave, duration : 64 ms (1.53 video frames)
Interleave, preload duration : 192 ms
Title : ac3

SCREENSHOT

Click Image To View Full Size

SCREENSHOT
Click To View Screenshot
Click To View Screenshot
Click To View Screenshot

Torrent location

https://www.1337x.to/torrent/2004999/About-Ray-2015-BRRip-XviD-AC3-iFT-PRiME/

Trackers

Refresh Leechers : Updated April 21, 2017

1. http://explodie.org:6969/announce

2. http://tracker.tfile.me/announce

3. http://bigfoot1942.sektori.org:6969/announce

4. udp://eddie4.nl:6969/announce

5. udp://tracker4.piratux.com:6969/announce

6. udp://tracker.trackerfix.com:80/announce

7. udp://tracker.pomf.se:80/announce

8. udp://torrent.gresille.org:80/announce

9. udp://9.rarbg.me:2710/announce

10. udp://tracker.leechers-paradise.org:6969/announce

11. udp://glotorrents.pw:6969/announce

12. udp://tracker.opentrackr.org:1337/announce

13. udp://tracker.blackunicorn.xyz:6969/announce

14. udp://tracker.internetwarriors.net:1337/announce

15. udp://p4p.arenabg.ch:1337/announce

16. udp://tracker.coppersurfer.tk:6969/announce

17. udp://9.rarbg.to:2710/announce

18. udp://tracker.openbittorrent.com:80/announce

19. udp://glotorrents.pw:6969/announce

20. udp://eddie4.nl:6969/announce

21. udp://explodie.org:6969/announce

22. udp://9.rarbg.me:2710/announce

23. udp://9.rarbg.to:2710/announce

24. udp://9.rarbg.com:2710/announce

25. udp://p4p.arenabg.com:1337/announce

26. udp://p4p.arenabg.ch:1337/announce

27. udp://ipv4.tracker.harry.lu:80/announce

28. udp://tracker.zer0day.to:1337/announce

29. udp://tracker.opentrackr.org:1337/announce

30. udp://tracker.leechers-paradise.org:6969/announce

31. udp://tracker.coppersurfer.tk:6969/announce

32. udp://tracker.ilibr.org:80/announce

33. udp://tracker.ilibr.org:6969/announce

Comments

You must log in to add a comment.

Embed Code

Sharing Widget

Top Movies ( auto generated report )

FILENAME SIZE SEEDS PEERS ADDED UPD
[i] A Cure for Wellness (2016) [720p] [YTS AG] 1.07 GB 4250 2527 2 days 1 hour
[i] T2 Trainspotting (2017) [720p] [YTS AG] 860.23 MB 3476 1138 2 days 1 hour
[i] Colossal.2016.1080p.WEB-DL.AAC2.0.H264-FGT 3.5 GB 2217 850 2 days 1 hour
[i] Black.Butterfly.2017.1080p.WEB-DL.DD5.1.H264-FGT 3.22 GB 1672 764 2 days 1 hour
[i] Voice from the Stone (2017) [720p] [YTS AG] 669.8 MB 1425 969 23 hours 45 min
[i] Swallows and Amazons (2016) [720p] [YTS AG] 706.61 MB 1296 864 23 hours 45 min
[i] McLaren (2016) [1080p] [YTS AG] 1.43 GB 1295 446 2 days 1 hour
[i] McLaren (2016) [720p] [YTS AG] 689.56 MB 1143 499 2 days 1 hour
[i] The Last Word (2017) [720p] [YTS AG] 782.53 MB 1450 997 23 hours 40 min
[i] The Ticket (2016) [720p] [YTS AG] 728.18 MB 1069 600 2 days 1 hour