Warning! Use a VPN When Downloading Torrents!
Your IP Address is . Location is
Avoid LAWSUITS and FINES! Hide your IP ADDRESS with a VPN!
We strongly recommend using Trust.Zone VPN to anonymize your torrenting. It's FREE!
Get VPN Now for FREE!

Eminem - The Slim Shady LP (1999) [Flac] [TntVillage]

DOWNLOAD TORRENT DOWNLOAD DOWNLOAD ANONYMOUS

Posted by ab760 •33 on November 10, 2016 in Music » Rap/Hiphop , verified torrent

Size: 378.81 MB , Seeds: 4 , Peers: 0 ( Updated December 14, 2016 - Refresh )

* Download via Magnet Link , * To download files you need a Bittorrent Client , * How to download torrents from Bit Torrent Scene?

Loading...

Internal Files

Eminem - The Slim Shady LP (1999)
07 - 97' Bonnie & Clyde.flac   33.28 MB
02 - My Name Is.flac   26.41 MB
03 - Guilty Conscience.flac   20.4 MB
04 - Brain Damage.flac   24.16 MB
05 - Paul.flac   1.27 MB
06 - If I Had.flac   26.32 MB
01 - Public Service Announcement.flac   2.5 MB
08 - Bitch.flac   1.67 MB
09 - Role Model.flac   19.88 MB
10 - Lounge.flac   4.53 MB
11 - My Fault.flac   24.95 MB
12 - Ken Kaniff.flac   6.55 MB
13 - Cum On Everybody.flac   24.67 MB
14 - Rock Bottom.flac   21.22 MB
15 - Just Don't Give A Fuck.flac   30.63 MB
16 - Soap.flac   3.39 MB
17 - As The World Turns.flac   28.07 MB
18 - I'm Shady.flac   25.3 MB
19 - Bad Meets Evil.flac   27.31 MB
20 - Still Don't Give A Fuck.flac   26.29 MB
Eminem - The Slim Shady LP (1999).cue   1.56 KB
Eminem - The Slim Shady LP.log   7.48 KB

Hash Code

948d90864c547eaed916ac0b94075c1ab878e19e

Description

SCREENSHOT

SCREENSHOT

EMINEM
THE SLIM SHADY LP (1999)


SCREENSHOT

Prima pubblicazione: 1999 SCREENSHOT
Genere: Rap
Dischi: 1
Tracce: 14

SCREENSHOT

1. Public Service Announcement (Jeff Bass)
2. My Name Is
3. Guilty Conscience (ft. Dr. Dre)
4. Brain Damage
5. Paul (Paul "Bunyan" Rosenberg)
6. If I Had
7. 97' Bonnie & Clyde
8. Bitch (Zoe Winkler)
9. Role Model
10. Lounge
11. My Fault
12. Ken Kaniff (Aristotle, Eminem, Marky Bass)
13. Cum on Everybody (ft. Dina Rae)
14. Rock Bottom
15. Just Don't Give a Fuck
16. Soap (ft. Royce Da 5'9")
17. As the World Turns
18. I'm Shady
19. Bad Meets Evil (ft.Royce da 5'9")
20. Still Don't Give a Fuck

Durata totale: 59:36


SCREENSHOT

Rippato da Juicy_J :grazie:

Log rip:

Exact Audio Copy V0.99 prebeta 3 from 28. July 2007

EAC extraction logfile from 19. January 2008, 2:10

Eminem / The Slim Shady LP

Used drive : ASUS DVD-E616P3H Adapter: 3 ID: 1

Read mode : Secure
Utilize accurate stream : Yes
Defeat audio cache : Yes
Make use of C2 pointers : No

Read offset correction : 738
Overread into Lead-In and Lead-Out : No
Fill up missing offset samples with silence : Yes
Delete leading and trailing silent blocks : No
Null samples used in CRC calculations : Yes
Used interface : Native Win32 interface for Win NT & 2000
Gap handling : Appended to previous track

Used output format : User Defined Encoder
Selected bitrate : 320 kBit/s
Quality : High
Add ID3 tag : No
Command line compressor : D:ProgrammeExact Audio CopyFlacflac.exe
Additional command line options : -5 -T "Artist=%a" -T "Title=%t" -T "Album=%g" -T "Date=%y" -T "Tracknumber=%n" -T "Genre=%m" %s -o %d


TOC of the extracted CD

Track | Start | Length | Start sector | End sector
---------------------------------------------------------
1 | 0:00.00 | 0:33.18 | 0 | 2492
2 | 0:33.18 | 4:28.30 | 2493 | 22622
3 | 5:01.48 | 3:19.25 | 22623 | 37572
4 | 8:20.73 | 3:46.55 | 37573 | 54577
5 | 12:07.53 | 0:15.62 | 54578 | 55764
6 | 12:23.40 | 4:05.38 | 55765 | 74177
7 | 16:29.03 | 5:16.30 | 74178 | 97907
8 | 21:45.33 | 0:19.52 | 97908 | 99384
9 | 22:05.10 | 3:25.30 | 99385 | 114789
10 | 25:30.40 | 0:46.40 | 114790 | 118279
11 | 26:17.05 | 4:01.45 | 118280 | 136399
12 | 30:18.50 | 1:16.23 | 136400 | 142122
13 | 31:34.73 | 3:39.17 | 142123 | 158564
14 | 35:14.15 | 3:34.08 | 158565 | 174622
15 | 38:48.23 | 4:02.42 | 174623 | 192814
16 | 42:50.65 | 0:34.45 | 192815 | 195409
17 | 43:25.35 | 4:25.25 | 195410 | 215309
18 | 47:50.60 | 3:31.73 | 215310 | 231207
19 | 51:22.58 | 4:13.05 | 231208 | 250187
20 | 55:35.63 | 4:12.52 | 250188 | 269139

SCREENSHOT

SEEDBOX 24/7
SCREENSHOT

SCREENSHOT

Trackers

Refresh Leechers : Updated December 14, 2016

http://tracker.tntvillage.scambioetico.org:2710/announce

Comments

You must log in to add a comment.

Embed Code

Sharing Widget

Related torrents

FILENAME SIZE SEEDS PEERS ADDED UPD
[i] Eminem The Slim Shady LP - Unmastered Sequence [1999] FLAC CD 426.15 MB 3 0 1 year 11 months
[i] Eminem - Slim Shady Remix [2011] [Single] - Sebastian[Ub3r] 23.2 MB 2 8 5 years 1 year

Top Music ( auto generated report )

FILENAME SIZE SEEDS PEERS ADDED UPD
[i] The Beatles - Abbey Road And Beyond (6 CD Box Set) (2016) 811.3 MB 398 153 1 day 22 hours
[i] Jamiroquai - Automaton (2017) 131.57 MB 455 46 1 day 4 hours
[i] Top 20 Hindi Movies Songs March 2017 [Mp3~320Kbps] 193.32 MB 165 25 4 days 10 hours
[i] Nelly Furtado - The Ride (2017) [Mp3~320kbps] 107.29 MB 192 38 1 day 17 hours
[i] VA - Disco 2017 Club Dance Hits (2017) Mp3 320Kbps 697.38 MB 180 36 5 days 23 hours
[i] Nelly Furtado - The Ride (2017) 105.41 MB 165 16 1 day 18 hours
[i] Pink Floyd - The Early Years 1972: Obfusc/ation (2017) [24-44.1] 1.2 GB 147 44 3 days 2 days
[i] Pink Floyd - The Early Years: 1965-1967 Cambridge St/ation (2017) [24-44.1 FLAC] 1.19 GB 143 54 4 days 3 days
[i] Pink Floyd - The Early Years: 1968 Germin/ation (2017) [24-44.1 FLAC] 635.3 MB 131 50 4 days 3 days
[i] VA - Mum Songs 3CD (2017) [Mp3~320kbps] 427.76 MB 130 54 3 days 2 days
advertising ( remove )