Your IP Address is . Location is Your ISP and Government can track your torrent activity! Hide your IP with a VPN!

[ShepardTDS] Freezing Vibration Dual Audio Uncensored [720p 8-bit x265 HEVC] 1-12+OVAs Complete

DOWNLOAD TORRENT DOWNLOAD DOWNLOAD ANONYMOUS

Posted on December 2, 2015 in Anime » English Translated Video , verified torrent

Size: 2.54 GB , Seeds: 2 , Peers: 0 ( Updated September 9, 2017 - Refresh )

* Download via Magnet Link , * To download files you need a Bittorrent Client , * How to download torrents from Bit Torrent Scene?

Scrape History ( seeds + peers )

Internal Files

[ShepardTDS] Freezing Vibration Dual Audio Uncensored [720p 8-bit x265 HEVC] 1-12+OVAs Complete
Freezing Vibration NCED.mkv   14.28 MB
Freezing Vibration NCOP.mkv   23.18 MB
Freezing Vibration OVA 1 Satellizer L. Bridget.mkv   34.35 MB
Freezing Vibration OVA 2 Scarlett O'Hara.mkv   18.43 MB
Freezing Vibration OVA 3 Julia Munberk.mkv   20.54 MB
Freezing Vibration OVA 4 Holly Rose.mkv   22.75 MB
Freezing Vibration OVA 5 Roxanne Elipton.mkv   18.24 MB
Freezing Vibration OVA 6 March Through The Snow.mkv   23.93 MB
Freezing Vibration 01 Pandora Returns.mkv   234.08 MB
Freezing Vibration 02 Evolution Pandora.mkv   188.71 MB
Freezing Vibration 03 Mark IV.mkv   193.21 MB
Freezing Vibration 04 Mate.mkv   201.23 MB
Freezing Vibration 05 Noblesse Oblige.mkv   178.7 MB
Freezing Vibration 06 Marionettes.mkv   161.24 MB
Freezing Vibration 07 Spellbound.mkv   201.31 MB
Freezing Vibration 08 Rebellion.mkv   180.64 MB
Freezing Vibration 09 Traitor.mkv   211.05 MB
Freezing Vibration 10 True Pandora.mkv   241.42 MB
Freezing Vibration 11 Nova Crash.mkv   246.69 MB
Freezing Vibration 12 Shaft of Light.mkv   188.44 MB
Torrent Downloaded From ExtraTorrent.cc.txt   352 Byte

Hash Code

cd0c071df5c9593d963b75a67c5acc9842366ace

Description

SCREENSHOT



Constant Quality encoding.

Variable Bit rates

ED and OP included

Blu-Ray Source

All 6 OVAs



SCREENSHOT



SCREENSHOT



General



Format : Matroska

File size : 161 MiB-247 MiB

Duration : 23mn 36s

Overall bit rate : 955 Kbps-1,460 Kbps

Encoded date : UTC 2015-12-01 12:07:14

Writing application : mkvmerge v7.7.0 ('Six Voices') 32bit built on Feb 28 2015 23:23:00

Writing library : libebml v1.3.1 + libmatroska v1.4.2



Video

ID : 1

Format : V_MPEGH/ISO/HEVC

Codec ID : V_MPEGH/ISO/HEVC

Duration : 23mn 36s

Bit rate : 552 Kbps-1,047 Kbps

Width : 1 280 pixels

Height : 720 pixels

Display aspect ratio : 16:9

Frame rate : 23.976 fps

Bits/(Pixel*Frame) : 0.025

Stream size : 93.2 MiB (58%)



Audio #1

ID : 2

Format : AC-3

Format/Info : Audio Coding 3

Mode extension : CM (complete main)

Codec ID : A_AC3

Duration : 23mn 36s

Bit rate mode : Constant

Bit rate : 192 Kbps

Channel(s) : 6 channels

Channel positions : Front: L C R, Side: L R, LFE

Sampling rate : 48.0 KHz

Bit depth : 16 bits

Compression mode : Lossy

Stream size : 32.4 MiB (20%)

Language : English



Audio #2

ID : 3

Format : AC-3

Format/Info : Audio Coding 3

Mode extension : CM (complete main)

Codec ID : A_AC3

Duration : 23mn 36s

Bit rate mode : Constant

Bit rate : 192 Kbps

Channel(s) : 2 channels

Channel positions : Front: L R

Sampling rate : 48.0 KHz

Bit depth : 16 bits

Compression mode : Lossy

Stream size : 32.4 MiB (20%)

Language : Japanese



Text #1

ID : 4

Format : PGS

Muxing mode : zlib

Codec ID : S_HDMV/PGS

Codec ID/Info : The same subtitle format used on BDs/HD-DVDs

Language : English



Text #2

ID : 5

Format : PGS

Muxing mode : zlib

Codec ID : S_HDMV/PGS

Codec ID/Info : The same subtitle format used on BDs/HD-DVDs

Language : English



Menu

00:00:00.000 : en:Chapter 1

00:01:35.303 : en:Chapter 2

00:03:05.310 : en:Chapter 3

00:12:33.336 : en:Chapter 4

00:21:55.314 : en:Chapter 5

00:23:25.237 : en:Chapter 6

Trackers

Refresh Leechers : Updated September 9, 2017

1. udp://glotorrents.pw:6969/announce

2. udp://torrent.gresille.org:80/announce

3. udp://tracker.opentrackr.org:1337/announce

4. udp://tracker.piratepublic.com:1337/announce

5. udp://9.rarbg.com:2710/announce

6. udp://tracker.openbittorrent.com:80/announce

Comments

You must log in to add a comment.

Embed Code

Sharing Widget

Related torrents

FILENAME SIZE SEEDS PEERS ADDED UPD
[i]
[i]
[AnimeRG] Freezing Vibration [720p] [Dual-Audio] [Xcelent]
posted by AnimeRG in Anime - English Translated Video , Quality: Audio 9/10 - Video 9/10
5.38 GB 0 0 2 years 3 months

Top Anime ( auto generated report )

FILENAME SIZE SEEDS PEERS ADDED UPD
[i] Card Captor Sakura S02e22-28 [BDmux 1080p - H264 - Ita Jap Ac3 - Cartelli SoftSub Ita] 5.73 GB 13 5 2 days 1 day