Bit Torrent Scene a public file sharing platform Home Upload Categories About

Warning! Use a VPN When Downloading Torrents!
Your IP Address is . Location is
Avoid LAWSUITS and FINES! Hide your IP ADDRESS with a VPN!
We strongly recommend using Trust.Zone VPN to anonymize your torrenting. It's FREE!
Get VPN Now for FREE!

Goat.2016.HDRip.AC3.2.0.x264-BDP[PRiME]

DOWNLOAD TORRENT DOWNLOAD DOWNLOAD ANONYMOUS

Posted on January 12, 2017 in Movies » Misc , verified torrent

Size: 707.2 MB , Seeds: 2 , Peers: 27 ( Updated January 12, 2017 - Refresh )

* Download via Magnet Link , * To download files you need a Bittorrent Client , * How to download torrents from Bit Torrent Scene?

Loading...

Internal Files

Goat.2016.HDRip.AC3.2.0.x264-BDP[PRiME]
ENGLiSH.srt   140.6 KB
Goat.2016.HDRip.AC3.2.0.x264-BDP[PRiME].mkv   701.83 MB
Please Support!! Read More!!!.txt   232 Byte
Torrent Downloaded From 1337x.to.txt   69 Byte
Torrent Downloaded From ExtraTorrent.cc.txt   446 Byte
Torrent downloaded from AhaShare.com.txt   59 Byte

Hash Code

13499662dbf3573e877c1a12bcd88aeeb0844c35

Description


Goat.2016.HDRip.AC3.2.0.x264-BDP[PRiME]

ImDb: http://www.imdb.com/title/tt4437216

SCREENSHOT

Complete name : Goat.2016.HDRip.AC3.2.0.x264-BDP[PRiME].mkv
Format : Matroska
Format version : Version 4 / Version 2
File size : 702 MiB
Duration : 1 h 42 min
Overall bit rate : 958 kb/s
Encoded date : UTC 2017-01-11 22:07:20
Writing application : Lavf57.46.100
Writing library : Lavf57.46.100 / Lavf57.46.100
COMPOSER : Encoder *BDP*

Video
ID : 1
Format : AVC
Format/Info : Advanced Video Codec
Format profile : [email protected]/* */
Format settings, CABAC : Yes
Format settings, ReFrames : 5 frames
Codec ID : V_MPEG4/ISO/AVC
Duration : 1 h 42 min
Bit rate : 808 kb/s
Width : 720 pixels
Height : 384 pixels
Display aspect ratio : 16:9
Frame rate mode : Constant
Frame rate : 23.976 FPS
Standard : Component
Color space : YUV
Chroma subsampling : 4:2:0
Bit depth : 8 bits
Scan type : Progressive
Bits/(Pixel*Frame) : 0.122
Stream size : 571 MiB (81%)
Writing library : x264 core 148 r2643
Encoding settings : cabac=1 / ref=5 / deblock=1:-3:-3 / analyse=0x3:0x133 / me=umh / subme=7 / psy=1 / psy_rd=1.00:0.00 / mixed_ref=1 / me_range=16 / chroma_me=1 / trellis=1 / 8x8dct=1 / cqm=0 / deadzone=21,11 / fast_pskip=1 / chroma_qp_offset=-2 / threads=12 / lookahead_threads=2 / sliced_threads=0 / nr=0 / decimate=1 / interlaced=0 / bluray_compat=0 / constrained_intra=0 / bframes=3 / b_pyramid=0 / b_adapt=1 / b_bias=0 / direct=0 / weightb=1 / open_gop=0 / weightp=2 / keyint=239 / keyint_min=23 / scenecut=40 / intra_refresh=0 / rc_lookahead=40 / rc=abr / mbtree=1 / bitrate=808 / ratetol=1.0 / qcomp=0.60 / qpmin=10 / qpmax=69 / qpstep=4 / vbv_maxrate=38642 / vbv_bufsize=38642 / nal_hrd=none / filler=0 / ip_ratio=1.40 / aq=3:1.00
Default : Yes
Forced : No
Color range : Limited
Color primaries : BT.709
Transfer characteristics : BT.709
Matrix coefficients : BT.709
DURATION : 01:42:25.651000000

Audio
ID : 2
Format : AC-3
Format/Info : Audio Coding 3
Mode extension : CM (complete main)
Format settings, Endianness : Big
Codec ID : A_AC3
Duration : 1 h 42 min
Bit rate mode : Constant
Bit rate : 160 kb/s
Channel(s) : 2 channels
Channel positions : Front: L R
Sampling rate : 48.0 kHz
Frame rate : 31.250 FPS (1536 spf)
Bit depth : 16 bits
Compression mode : Lossy
Stream size : 117 MiB (17%)
Writing library : Lavc57.51.100 ac3_fixed
Default : Yes
Forced : No
DURATION : 01:42:25.632000000

SCREENSHOT

Click Image To View Full Size

SCREENSHOT
Click To View Screenshot
Click To View Screenshot
Click To View Screenshot

Torrent location

https://www.1337x.to/torrent/2004617/Goat-2016-HDRip-AC3-2-0-x264-BDP-PRiME/

Trackers

Refresh Leechers : Updated January 12, 2017

1. http://explodie.org:6969/announce

2. http://tracker.tfile.me/announce

3. http://bigfoot1942.sektori.org:6969/announce

4. udp://eddie4.nl:6969/announce

5. udp://tracker4.piratux.com:6969/announce

6. udp://tracker.trackerfix.com:80/announce

7. udp://tracker.pomf.se:80/announce

8. udp://torrent.gresille.org:80/announce

9. udp://9.rarbg.me:2710/announce

10. udp://tracker.leechers-paradise.org:6969/announce

11. udp://glotorrents.pw:6969/announce

12. udp://tracker.opentrackr.org:1337/announce

13. udp://tracker.blackunicorn.xyz:6969/announce

14. udp://tracker.internetwarriors.net:1337/announce

15. udp://p4p.arenabg.ch:1337/announce

16. udp://tracker.coppersurfer.tk:6969/announce

17. udp://9.rarbg.to:2710/announce

18. udp://tracker.openbittorrent.com:80/announce

19. udp://glotorrents.pw:6969/announce

20. udp://eddie4.nl:6969/announce

21. udp://explodie.org:6969/announce

22. udp://9.rarbg.me:2710/announce

23. udp://9.rarbg.to:2710/announce

24. udp://9.rarbg.com:2710/announce

25. udp://p4p.arenabg.com:1337/announce

26. udp://p4p.arenabg.ch:1337/announce

27. udp://ipv4.tracker.harry.lu:80/announce

28. udp://tracker.zer0day.to:1337/announce

29. udp://tracker.opentrackr.org:1337/announce

30. udp://tracker.leechers-paradise.org:6969/announce

31. udp://tracker.coppersurfer.tk:6969/announce

32. udp://tracker.ilibr.org:80/announce

33. udp://tracker.ilibr.org:6969/announce

Comments

You must log in to add a comment.

Embed Code

Sharing Widget

Top Movies ( auto generated report )

FILENAME SIZE SEEDS PEERS ADDED UPD
[i] Doctor Strange (2016) [1080p] [YTS AG] 1.75 GB 13647 10948 4 days 3 days
[i] Allied (2016) [720p] [YTS AG] 915.32 MB 5329 6143 4 days 4 days
[i] Doctor Strange (2016) [720p] [YTS AG] 844.93 MB 5039 9103 4 days 4 days
[i] Allied (2016) [1080p] [YTS AG] (1) 1.89 GB 4331 5906 4 days 4 days
[i] Manchester by the Sea (2016) [720p] [YTS AG] 1000.07 MB 4307 2734 1 week 1 week
[i] Frank.and.Lola.2016.BRRip.XViD-ETRG 706.3 MB 4226 8134 1 week 1 week
[i] Hacksaw Ridge (2016) [720p] [YTS AG] 1 GB 3811 6591 1 week 1 week
[i] Doctor.Strange.2016.1080p.WEB-DL.DD5.1.H264-FGT 3.96 GB 3540 5860 1 week 1 week
[i] Underworld Blood Wars 2016 1080p WEB-DL x264 AC3-JYK 2.52 GB 3428 3718 1 week 1 week
[i] Hacksaw Ridge (2016) [1080p] [YTS AG] 2.12 GB 3408 6412 1 week 1 week
advertising ( remove )