Your IP Address is . Location is Your ISP and Government can track your torrent activity! Hide your IP with a VPN!

Haseena Parkar 2017 HD Dual Audio English Hindi GOPISAHI

DOWNLOAD TORRENT DOWNLOAD DOWNLOAD ANONYMOUS

Posted by gopisahi •568 on January 12, 2018 in Movies » Drama , verified torrent

Size: 496.36 MB , Seeds: 10 , Peers: 3 ( Updated January 18, 2018 )

* Download via Magnet Link , * To download files you need a Bittorrent Client , * How to download torrents from Bit Torrent Scene?

Scrape History ( seeds + peers )

Internal Files

Haseena Parkar 2017 HD Dual Audio English Hindi GOPISAHI.mkv
Haseena Parkar 2017 HD Dual Audio English Hindi GOPISAHI.mkv   496.36 MB

Hash Code

66a6961736758cfd49e82b7ad45c4265e54292b7

Description

SCREENSHOT
Format : Matroska
Format version : Version 4 / Version 2
File size : 496 MiB
Duration : 1 h 57 min
Overall bit rate : 590 kb/s

Video
Format : AVC
Codec ID : V_MPEG4/ISO/AVC
Duration : 1 h 57 min
Bit rate : 500 kb/s
Width : 1 280 pixels
Height : 544 pixels
Display aspect ratio : 2.35:1
Frame rate mode : Constant
Frame rate : 23.976 (24000/1001) FPS
Stream size : 420 MiB (85%)
Writing library : x264 core 148 r2708 86b7198

Audio
Format : AAC
Duration : 1 h 57 min
Bit rate : 88.1 kb/s
Channel(s) : 6 channels
Channel positions : Front: L C R, Side: L R, LFE
Sampling rate : 44.1 kHz
Frame rate : 43.066 FPS (1024 SPF)
Stream size : 74.1 MiB (15%)
SCREENSHOT
SCREENSHOT
SCREENSHOT

Trackers

Refresh Leechers : Updated January 18, 2018

1. http://ipv4.tracker.harry.lu/announce

2. http://ipv4.tracker.harry.lu:80/announce

3. http://163.172.180.68:80/announce

4. http://t.nyaatracker.com/announce

5. http://tracker.devil-torrents.pl:80/announce

6. http://tracker.devil-torrents.pl/announce

7. http://open.kickasstracker.com/announce

8. http://163.172.180.68/announce

9. http://t.nyaatracker.com:80/announce

10. http://retracker.mgts.by:80/announce

11. http://45.33.11.224/announce

12. http://tracker.torrentyorg.pl:80/announce

13. http://pt.lax.mx:80/announce

14. udp://tracker.coppersurfer.tk:6969/announce

15. udp://tracker.pirateparty.gr:6969/announce

Comments

You must log in to add a comment.

Embed Code

Sharing Widget

Related torrents

FILENAME SIZE SEEDS PEERS ADDED UPD
[i] Haseena Parkar 2017 720p WEB-HD x264 AAC
posted by moviefreak in Movies - Thriller
859.82 MB 85 11 6 days 5 hours
[i] Haseena Parkar 2017 1080p WEB-HD x264
posted by moviefreak in Movies - Thriller
1.49 GB 29 9 6 days 37 min
[i] Haseena.Parkar.2017.1080p.V2.WebDL.Hindi.2CH.AAC.Ov3rload.torrent 1.64 GB 24 15 6 days 6 hours
[i] Haseena Parkar 2017 Hindi 720p WEB-DL 550Mb HEVC x265-Team W4U.torrent 560.3 MB 18 5 5 days 4 days
[i] Haseena.Parkar.2017.720p.V2.WebDL.Hindi.2CH.AAC.Ov3rload.torrent 841.3 MB 7 1 6 days 18 hours

Top Movies ( auto generated report )

FILENAME SIZE SEEDS PEERS ADDED UPD
[i] Geostorm (2017) [1080p] [YTS AG] 1.67 GB 5754 3112 1 day 9 hours
[i] Geostorm (2017) [720p] [YTS AG] 812.63 MB 5412 3658 1 day 9 hours
[i] Jigsaw (2017) [1080p] [YTS AG] 1.4 GB 4322 2711 1 day 20 hours
[i] Jigsaw (2017) [720p] [YTS AG] 675.39 MB 3922 2227 1 day 20 hours
[i] Mollys Game 2017 DVDScr XVID AC3 HQ Hive CM8 1.79 GB 2207 1893 1 day 22 hours
[i] Darkest.Hour.2017.DVDScr.XVID.AC3.HQ.Hive-CM8 1.92 GB 2179 593 6 days 12 hours
[i] Professor Marston and the Wonder Women (2017) [720p] [YTS AG] 791.43 MB 2159 1179 4 days 3 days
[i] Acts.of.Violence.2018.WEB-DL.x264-FGT [rarbg] 760.65 MB 998 151 6 days 8 min
[i] Acts of Violence.2018.HDRip.XviD.AC3-EVO 1.42 GB 1102 380 6 days 8 min
[i] Thank You for Your Service (2017) [720p] [YTS AG] 801.88 MB 1658 1072 3 days 2 days