Your IP Address is . Location is Your ISP and Government can track your torrent activity! Hide your IP with a VPN!

Hickey.2017.HDRip.XviD.AC3-iFT[PRiME]

DOWNLOAD TORRENT DOWNLOAD PROTECT YOUR PRIVACY

Posted on January 11, 2017 in Movies » Misc , verified torrent

Size: 1.33 GB , Seeds: 0 , Peers: 0 ( Updated January 15, 2018 - Refresh )

Could not find any peer statistics from any torrent tracker.
This does not mean the torrent is dead.

* Download via Magnet Link , * To download files you need a Bittorrent Client , * How to download torrents from Bit Torrent Scene?

Scrape History ( seeds + peers )

Internal Files

Hickey.2017.HDRip.XviD.AC3-iFT[PRiME]
Hickey.2017.HDRip.XviD.AC3-iFT[PRiME].avi   1.31 GB
Please Support!! Read More!!!.txt   232 Byte
Sample[PRiME].avi   14.56 MB
English.srt   93.84 KB
Torrent Downloaded From 1337x.to.txt   69 Byte
Torrent Downloaded From ExtraTorrent.cc.txt   446 Byte
Torrent downloaded from AhaShare.com.txt   59 Byte

Hash Code

66a75cb6536d0fe70be0bfeadd5ae7d39212dd48

Description


Hickey.2017.HDRip.XviD.AC3-iFT[PRiME]

ImDb: http://www.imdb.com/title/tt2122355

SCREENSHOT

Complete name : Hickey.2017.HDRip.XviD.AC3-iFT[PRiME].avi
Format : AVI
Format/Info : Audio Video Interleave
Format profile : OpenDML
Format settings : rec
File size : 1.31 GiB
Duration : 1 h 20 min
Overall bit rate : 2 336 kb/s
Writing application : AVI-Mux GUI 1.17.8.3, Feb 16 201019:42:50

Video
ID : 0
Format : MPEG-4 Visual
Format profile : Advanced [email protected]/* */
Format settings, BVOP : 2
Format settings, QPel : No
Format settings, GMC : No warppoints
Format settings, Matrix : Default (H.263)
Muxing mode : Packed bitstream
Codec ID : XVID
Codec ID/Hint : XviD
Duration : 1 h 20 min
Bit rate : 1 946 kb/s
Width : 720 pixels
Height : 304 pixels
Display aspect ratio : 2.35:1
Frame rate : 23.976 (23976/1000) FPS
Color space : YUV
Chroma subsampling : 4:2:0
Bit depth : 8 bits
Scan type : Progressive
Compression mode : Lossy
Bits/(Pixel*Frame) : 0.371
Stream size : 1.09 GiB (83%)
Writing library : XviD 73

Audio
ID : 1
Format : AC-3
Format/Info : Audio Coding 3
Mode extension : CM (complete main)
Format settings, Endianness : Big
Codec ID : 2000
Duration : 1 h 20 min
Bit rate mode : Constant
Bit rate : 384 kb/s
Channel(s) : 6 channels
Channel positions : Front: L C R, Side: L R, LFE
Sampling rate : 48.0 kHz
Frame rate : 31.250 FPS (1536 spf)
Compression mode : Lossy
Stream size : 221 MiB (16%)
Alignment : Aligned on interleaves
Interleave, duration : 64 ms (1.53 video frames)
Interleave, preload duration : 192 ms
Title : Hickey.track_2

SCREENSHOT

Click Image To View Full Size

SCREENSHOT
Click To View Screenshot
Click To View Screenshot
Click To View Screenshot

Torrent location

https://www.1337x.to/torrent/2004308/Hickey-2017-HDRip-XviD-AC3-iFT-PRiME/

Trackers

Refresh Leechers : Updated January 15, 2018

1. http://explodie.org:6969/announce

2. http://tracker.tfile.me/announce

3. http://bigfoot1942.sektori.org:6969/announce

4. udp://eddie4.nl:6969/announce

5. udp://tracker4.piratux.com:6969/announce

6. udp://tracker.trackerfix.com:80/announce

7. udp://tracker.pomf.se:80/announce

8. udp://torrent.gresille.org:80/announce

9. udp://9.rarbg.me:2710/announce

10. udp://tracker.leechers-paradise.org:6969/announce

11. udp://glotorrents.pw:6969/announce

12. udp://tracker.opentrackr.org:1337/announce

13. udp://tracker.blackunicorn.xyz:6969/announce

14. udp://tracker.internetwarriors.net:1337/announce

15. udp://p4p.arenabg.ch:1337/announce

16. udp://tracker.coppersurfer.tk:6969/announce

17. udp://9.rarbg.to:2710/announce

18. udp://tracker.openbittorrent.com:80/announce

19. udp://glotorrents.pw:6969/announce

20. udp://eddie4.nl:6969/announce

21. udp://explodie.org:6969/announce

22. udp://9.rarbg.me:2710/announce

23. udp://9.rarbg.to:2710/announce

24. udp://9.rarbg.com:2710/announce

25. udp://p4p.arenabg.com:1337/announce

26. udp://p4p.arenabg.ch:1337/announce

27. udp://ipv4.tracker.harry.lu:80/announce

28. udp://tracker.zer0day.to:1337/announce

29. udp://tracker.opentrackr.org:1337/announce

30. udp://tracker.leechers-paradise.org:6969/announce

31. udp://tracker.coppersurfer.tk:6969/announce

32. udp://tracker.ilibr.org:80/announce

33. udp://tracker.ilibr.org:6969/announce

Comments

You must log in to add a comment.

Embed Code

Sharing Widget

Top Movies ( auto generated report )

FILENAME SIZE SEEDS PEERS ADDED UPD
[i] Corbin Nash (2018) [WEBRip] [720p] [YTS AM] 824.69 MB 1031 960 11 hours 9 hours
[i] The Debt Collector (2018) [BluRay] [720p] [YTS AM] 818.36 MB 1042 902 11 hours 9 hours
[i] downloadhub in Sonu Ke Titu Ki Sweety (2018) Hindi 720p HDRip x264 AAC ESubs - Downloadhub 1.06 GB 1297 910 2 days 10 hours
[i] Priceless (2016) [BluRay] [720p] [YTS AM] 853.99 MB 851 500 11 hours 9 hours
[i] Looking Glass (2018) Nicolas Cage.720p.H264.italian.English.Ac3-5.1.sub.ita.eng.MIRCrew 1.89 GB 773 475 1 day 23 hours
[i] Stephanie (2017) [WEBRip] [720p] [YTS AM] 738.22 MB 748 282 2 days 1 day
[i] Backstabbing for Beginners (2018) [BluRay] [720p] [YTS AM] 928.47 MB 741 391 2 days 1 day
[i] Genesis (2018) [WEBRip] [720p] [YTS AM] 965.85 MB 880 1105 11 hours 9 hours
[i] The Condo (2015) [BluRay] [720p] [YTS AM] 684.31 MB 691 338 1 day 12 hours
[i] Genesis.2018.HDRip.XviD.AC3-EVO 1.41 GB 682 621 2 days 1 day