Your IP Address is . Location is Your ISP and Government can track your torrent activity! Hide your IP with a VPN!

Only Connect S13E35 Semi Final 1 revittony

DOWNLOAD TORRENT DOWNLOAD PROTECT YOUR PRIVACY

Posted by revittony •356 on April 17, 2018 in Series » Misc , verified torrent

Size: 342.06 MB , Seeds: 1 , Peers: 0 ( Updated April 23, 2018 - Refresh )

* Download via Magnet Link , * To download files you need a Bittorrent Client , * How to download torrents from Bit Torrent Scene?

Scrape History ( seeds + peers )

Internal Files

Only Connect S13E35 Semi Final 1.mp4
Only Connect S13E35 Semi Final 1.mp4   342.06 MB

Hash Code

7d7887b53ba5e40fae14c12e3c779d7d426147e0

Description

Format : MPEG-4
Format profile : Base Media
Codec ID : isom (isom/iso2/avc1/mp41)
Overall bit rate mode : Variable
Overall bit rate : 2 405 kb/s

Video
ID : 1
Format : AVC
Format/Info : Advanced Video Codec
Format profile : High@L4.1
Format settings, CABAC : Yes
Format settings, RefFrames : 2 frames
Codec ID : avc1
Codec ID/Info : Advanced Video Coding
Bit rate mode : Variable
Bit rate : 2 306 kb/s
Maximum bit rate : 3 500 kb/s
Width : 1 280 pixels
Height : 720 pixels
Display aspect ratio : 16:9
Frame rate mode : Constant
Frame rate : 25.000 FPS
Color space : YUV
Chroma subsampling : 4:2:0
Bit depth : 8 bits
Scan type : Progressive
Bits/(Pixel*Frame) : 0.100
Stream size : 478 MiB (96%)

Audio
ID : 2
Format : AAC
Format/Info : Advanced Audio Codec
Format profile : LC
Codec ID : 40
Bit rate mode : Constant
Bit rate : 93.5 kb/s
Channel(s) : 2 channels
Channel positions : Front: L R
Sampling rate : 48.0 kHz
Frame rate : 46.875 FPS (1024 SPF)
Compression mode : Lossy
Stream size : 19.4 MiB (4%)
Default : Yes
Alternate group : 1

Trackers

Refresh Leechers : Updated April 23, 2018

1. udp://tracker.coppersurfer.tk:6969/announce

2. udp://tracker.zer0day.to:1337/announce

3. udp://tracker.leechers-paradise.org:6969

Comments

You must log in to add a comment.

Embed Code

Sharing Widget

Top Series ( auto generated report )

FILENAME SIZE SEEDS PEERS ADDED UPD
[i] Westworld.S02E01.WEB.H264-DEFLATE[ettv] 510.05 MB 3817 802 4 days 3 days
[i] The.Expanse.S03E03.720p.HDTV.x264-SVA [rarbg] 933.57 MB 2146 470 20 hours 18 hours
[i] Suits.S07E15.720p.HDTV.x264-SVA [rarbg] 698.32 MB 2168 472 20 hours 18 hours
[i] The.Flash.2014.S04E19.HDTV.x264-SVA[ettv] 309 MB 2030 915 2 days 1 day
[i] Suits.S07E16.720p.HDTV.x264-AVS [rarbg] 986.82 MB 2405 2161 20 hours 18 hours
[i] Supernatural.S13E19.720p.HDTV.x264-AVS[rarbg] 743.57 MB 844 63 1 week 2 hours
[i] The.Blacklist.S05E19.720p.HDTV.x264-AVS [rarbg] 1.03 GB 1941 601 20 hours 18 hours
[i] Legion.S02E04.720p.HDTV.x264-AVS [rarbg] 1.01 GB 1606 189 1 day 21 hours
[i] Krypton.S01E06.PROPER.720p.HDTV.x264-KILLERS [rarbg] 720.07 MB 283 71 20 hours 18 hours
[i] Lethal.Weapon.S02E20.WEB.x264-TBS[ettv] 501 MB 913 261 2 days 1 day