Your IP Address is . Location is Your ISP and Government can track your torrent activity! Hide your IP with a VPN!

Sold.2016.HDRip.XviD.AC3-iFT[PRiME]

DOWNLOAD TORRENT DOWNLOAD DOWNLOAD ANONYMOUS

Posted on January 11, 2017 in Movies » Misc , verified torrent

Size: 1.57 GB , Seeds: 0 , Peers: 0 ( Updated June 29, 2017 - Refresh )

Could not find any peer statistics from any torrent tracker.
This does not mean the torrent is dead.

* Download via Magnet Link , * To download files you need a Bittorrent Client , * How to download torrents from Bit Torrent Scene?

Scrape History ( seeds + peers )

Internal Files

Sold.2016.HDRip.XviD.AC3-iFT[PRiME]
Please Support!! Read More!!!.txt   232 Byte
Sample[PRiME].avi   17.35 MB
Sold.2016.HDRip.XviD.AC3-iFT[PRiME].avi   1.54 GB
English.srt   54.88 KB
Torrent Downloaded From 1337x.to.txt   69 Byte
Torrent Downloaded From ExtraTorrent.cc.txt   446 Byte
Torrent downloaded from AhaShare.com.txt   59 Byte

Hash Code

e95d50bb33bc8262f9302ee1905293f569d46268

Description


Sold.2016.HDRip.XviD.AC3-iFT[PRiME]

ImDb: http://www.imdb.com/title/tt1411956

SCREENSHOT

Complete name : Sold.2016.HDRip.XviD.AC3-iFT[PRiME].avi
Format : AVI
Format/Info : Audio Video Interleave
Format profile : OpenDML
Format settings : rec
File size : 1.54 GiB
Duration : 1 h 34 min
Overall bit rate : 2 334 kb/s
Writing application : AVI-Mux GUI 1.17.8.3, Feb 16 201019:42:50

Video
ID : 0
Format : MPEG-4 Visual
Format profile : Advanced [email protected]/* */
Format settings, BVOP : 2
Format settings, QPel : No
Format settings, GMC : No warppoints
Format settings, Matrix : Default (H.263)
Muxing mode : Packed bitstream
Codec ID : XVID
Codec ID/Hint : XviD
Duration : 1 h 34 min
Bit rate : 1 944 kb/s
Width : 720 pixels
Height : 304 pixels
Display aspect ratio : 2.35:1
Frame rate : 23.976 (23976/1000) FPS
Color space : YUV
Chroma subsampling : 4:2:0
Bit depth : 8 bits
Scan type : Progressive
Compression mode : Lossy
Bits/(Pixel*Frame) : 0.370
Stream size : 1.28 GiB (83%)
Writing library : XviD 73

Audio
ID : 1
Format : AC-3
Format/Info : Audio Coding 3
Mode extension : CM (complete main)
Format settings, Endianness : Big
Codec ID : 2000
Duration : 1 h 34 min
Bit rate mode : Constant
Bit rate : 384 kb/s
Channel(s) : 6 channels
Channel positions : Front: L C R, Side: L R, LFE
Sampling rate : 48.0 kHz
Frame rate : 31.250 FPS (1536 spf)
Compression mode : Lossy
Stream size : 260 MiB (16%)
Alignment : Aligned on interleaves
Interleave, duration : 64 ms (1.53 video frames)
Interleave, preload duration : 192 ms
Title : Sold.track_2

SCREENSHOT

Click Image To View Full Size

SCREENSHOT
Click To View Screenshot
Click To View Screenshot
Click To View Screenshot

Torrent location

https://www.1337x.to/torrent/2004274/Sold-2016-HDRip-XviD-AC3-iFT-PRiME/

Trackers

Refresh Leechers : Updated June 29, 2017

1. http://explodie.org:6969/announce

2. http://tracker.tfile.me/announce

3. http://bigfoot1942.sektori.org:6969/announce

4. udp://eddie4.nl:6969/announce

5. udp://tracker4.piratux.com:6969/announce

6. udp://tracker.trackerfix.com:80/announce

7. udp://tracker.pomf.se:80/announce

8. udp://torrent.gresille.org:80/announce

9. udp://9.rarbg.me:2710/announce

10. udp://tracker.leechers-paradise.org:6969/announce

11. udp://glotorrents.pw:6969/announce

12. udp://tracker.opentrackr.org:1337/announce

13. udp://tracker.blackunicorn.xyz:6969/announce

14. udp://tracker.internetwarriors.net:1337/announce

15. udp://p4p.arenabg.ch:1337/announce

16. udp://tracker.coppersurfer.tk:6969/announce

17. udp://9.rarbg.to:2710/announce

18. udp://tracker.openbittorrent.com:80/announce

19. udp://glotorrents.pw:6969/announce

20. udp://eddie4.nl:6969/announce

21. udp://explodie.org:6969/announce

22. udp://9.rarbg.me:2710/announce

23. udp://9.rarbg.to:2710/announce

24. udp://9.rarbg.com:2710/announce

25. udp://p4p.arenabg.com:1337/announce

26. udp://p4p.arenabg.ch:1337/announce

27. udp://ipv4.tracker.harry.lu:80/announce

28. udp://tracker.zer0day.to:1337/announce

29. udp://tracker.opentrackr.org:1337/announce

30. udp://tracker.leechers-paradise.org:6969/announce

31. udp://tracker.coppersurfer.tk:6969/announce

32. udp://tracker.ilibr.org:80/announce

33. udp://tracker.ilibr.org:6969/announce

Comments

You must log in to add a comment.

Embed Code

Sharing Widget

Top Movies ( auto generated report )

FILENAME SIZE SEEDS PEERS ADDED UPD
[i] Geostorm.2017.KORSUB.HDRip.x264-STUTTERSHIT[rarbg] 959.15 MB 1220 381 4 days 15 hours
[i] 6 Below Miracle on the Mountain (2017) [720p] [YTS AG] 720.98 MB 1455 231 5 days 21 hours
[i] American.Made.2017.WEB-DL.x264-FGT 1011.15 MB 1267 685 3 days 2 days
[i] Geostorm 2017 HC HDRip 650MB 662.87 MB 986 130 5 days 1 day
[i] Home.Again.2017.WEB-DL.x264-FGT [rarbg] 854.15 MB 843 194 3 days 15 hours
[i] Geostorm.2017.720p.HDRip.KORSUB.x264[EtHD] 1.62 GB 777 164 4 days 3 days
[i] 6 Below Miracle on the Mountain (2017) [1080p] [YTS AG] 1.49 GB 701 164 5 days 1 day
[i] Conor.McGregor.Notorious.2017.720p.HDRip.x264.AAC-N.O.K 787.76 MB 657 296 1 day 21 hours
[i] Kinky Boots (2005) [720p] [YTS AG] 780.3 MB 554 237 5 days 4 days
[i] Kinky Boots (2005) [1080p] [YTS AG] 1.62 GB 550 220 5 days 4 days