The.Disappointments.Room.2016.HDRip.XviD.AC3-iFT[PRiME]

DOWNLOAD TORRENT DOWNLOAD DOWNLOAD ANONYMOUS

Posted on January 11, 2017 in Movies » Misc , verified torrent

Size: 1.39 GB , Seeds: 4 , Peers: 3 ( Updated April 20, 2017 - Refresh )

* Download via Magnet Link , * To download files you need a Bittorrent Client , * How to download torrents from Bit Torrent Scene?

Loading...

Scrape History ( seeds + peers )

Internal Files

The.Disappointments.Room.2016.HDRip.XviD.AC3-iFT[PRiME]
Please Support!! Read More!!!.txt   232 Byte
Sample[PRiME].avi   15.74 MB
English.srt   50.7 KB
The.Disappointments.Room.2016.HDRip.XviD.AC3-iFT[PRiME].avi   1.37 GB
Torrent Downloaded From 1337x.to.txt   69 Byte
Torrent Downloaded From ExtraTorrent.cc.txt   446 Byte
Torrent downloaded from AhaShare.com.txt   59 Byte

Hash Code

89dd2f8b46fce54c67fb9d67bf260260d06395b1

Description


The.Disappointments.Room.2016.HDRip.XviD.AC3-iFT[PRiME]

ImDb: http://www.imdb.com/title/tt2364897

SCREENSHOT

Complete name : The.Disappointments.Room.2016.HDRip.XviD.AC3-iFT[PRiME].avi
Format : AVI
Format/Info : Audio Video Interleave
Format profile : OpenDML
Format settings : rec
File size : 1.37 GiB
Duration : 1 h 25 min
Overall bit rate : 2 310 kb/s
Writing application : AVI-Mux GUI 1.17.8.3, Feb 16 201019:42:50

Video
ID : 0
Format : MPEG-4 Visual
Format profile : Advanced [email protected]/* */
Format settings, BVOP : 2
Format settings, QPel : No
Format settings, GMC : No warppoints
Format settings, Matrix : Default (H.263)
Muxing mode : Packed bitstream
Codec ID : XVID
Codec ID/Hint : XviD
Duration : 1 h 25 min
Bit rate : 1 920 kb/s
Width : 720 pixels
Height : 304 pixels
Display aspect ratio : 2.35:1
Frame rate : 23.976 (23976/1000) FPS
Color space : YUV
Chroma subsampling : 4:2:0
Bit depth : 8 bits
Scan type : Progressive
Compression mode : Lossy
Bits/(Pixel*Frame) : 0.366
Stream size : 1.14 GiB (83%)
Writing library : XviD 73

Audio
ID : 1
Format : AC-3
Format/Info : Audio Coding 3
Mode extension : CM (complete main)
Format settings, Endianness : Big
Codec ID : 2000
Duration : 1 h 25 min
Bit rate mode : Constant
Bit rate : 384 kb/s
Channel(s) : 6 channels
Channel positions : Front: L C R, Side: L R, LFE
Sampling rate : 48.0 kHz
Frame rate : 31.250 FPS (1536 spf)
Compression mode : Lossy
Stream size : 234 MiB (17%)
Alignment : Aligned on interleaves
Interleave, duration : 64 ms (1.53 video frames)
Interleave, preload duration : 192 ms
Title : The.track_2

SCREENSHOT

Click Image To View Full Size

SCREENSHOT
Click To View Screenshot
Click To View Screenshot
Click To View Screenshot

Torrent location

https://www.1337x.to/torrent/2004285/The-Disappointments-Room-2016-HDRip-XviD-AC3-iFT-PRiME/

Trackers

Refresh Leechers : Updated April 20, 2017

1. http://explodie.org:6969/announce

2. http://tracker.tfile.me/announce

3. http://bigfoot1942.sektori.org:6969/announce

4. udp://eddie4.nl:6969/announce

5. udp://tracker4.piratux.com:6969/announce

6. udp://tracker.trackerfix.com:80/announce

7. udp://tracker.pomf.se:80/announce

8. udp://torrent.gresille.org:80/announce

9. udp://9.rarbg.me:2710/announce

10. udp://tracker.leechers-paradise.org:6969/announce

11. udp://glotorrents.pw:6969/announce

12. udp://tracker.opentrackr.org:1337/announce

13. udp://tracker.blackunicorn.xyz:6969/announce

14. udp://tracker.internetwarriors.net:1337/announce

15. udp://p4p.arenabg.ch:1337/announce

16. udp://tracker.coppersurfer.tk:6969/announce

17. udp://9.rarbg.to:2710/announce

18. udp://tracker.openbittorrent.com:80/announce

19. udp://glotorrents.pw:6969/announce

20. udp://eddie4.nl:6969/announce

21. udp://explodie.org:6969/announce

22. udp://9.rarbg.me:2710/announce

23. udp://9.rarbg.to:2710/announce

24. udp://9.rarbg.com:2710/announce

25. udp://p4p.arenabg.com:1337/announce

26. udp://p4p.arenabg.ch:1337/announce

27. udp://ipv4.tracker.harry.lu:80/announce

28. udp://tracker.zer0day.to:1337/announce

29. udp://tracker.opentrackr.org:1337/announce

30. udp://tracker.leechers-paradise.org:6969/announce

31. udp://tracker.coppersurfer.tk:6969/announce

32. udp://tracker.ilibr.org:80/announce

33. udp://tracker.ilibr.org:6969/announce

Comments

You must log in to add a comment.

Embed Code

Sharing Widget

Related torrents

FILENAME SIZE SEEDS PEERS ADDED UPD
[i] The Disappointments Room (2016) [720p] [YTS AG] 678.14 MB 244 39 1 month 2 weeks
[i] The Disappointments Room (2016) [1080p] [YTS AG] 1.4 GB 242 40 1 month 2 weeks
[i] The Disappointments Room 2016 DVDRip XviD AC3-EVO 1.36 GB 190 29 4 months 1 month
[i] The Disappointments Room 2016 1080p BluRay x264 DTS-JYK 2.31 GB 88 17 3 weeks 1 week
[i] The Disappointments Room 2016 720p HC HDRip XVID-UnKnOwN 1.41 GB 43 14 4 months 4 months
[i] The.Disappointments.Room.2016.DVDRip.XviD.AC3-EVO 1.36 GB 35 11 4 months 4 months
[i] The.Disappointments.Room.2016.BRRip.XViD-ETRG 712.3 MB 34 16 1 month 2 weeks
[i] The.Disappointments.Room.2016.1080p.WEB-DL.DD5.1.H264-FGT[EtHD] 2.97 GB 17 4 3 months 5 days
[i] The.Disappointments.Room.2016.DVDRip.XviD.AC3-EVO[PRiME] 1.38 GB 14 5 4 months 4 months
[i] The.Disappointments.Room.2016.iTALiAN.Subbed.DVDRiP.XViD.NeWZoNe 676.57 MB 14 4 3 months 1 week

Top Movies ( auto generated report )

FILENAME SIZE SEEDS PEERS ADDED UPD
[i] Get.Out.2017.720p.HC.HDRip.XviD.AC3-EVO[EtHD] 2.5 GB 2998 843 3 days 1 hour
[i] A Dog's Purpose (2017) [720p] [YTS AG] 734.31 MB 4012 2214 4 days 2 days
[i] Gold (2016) [720p] [YTS AG] 881.47 MB 3451 1636 4 days 1 day
[i] Gold (2016) [1080p] [YTS AG] 1.83 GB 3342 1727 4 days 3 days
[i] Rings (2017) [1080p] [YTS AG] 1.56 GB 3072 1881 4 days 3 days
[i] Rings (2017) [720p] [YTS AG] 758.1 MB 2972 1380 4 days 1 day
[i] A Dog's Purpose (2017) [1080p] [YTS AG] 1.52 GB 2887 1464 4 days 15 hours
[i] Get.Out.2017.1080p.HC.WEBRip.x264.AAC2.0-STUTTERSHIT 3.4 GB 2014 855 3 days 23 hours
[i] Las inocentes (HDRip) 1.92 GB 1775 384 3 days 2 days
[i] All We Had (HDRip) 1.87 GB 1520 545 3 days 2 days