Bit Torrent Scene a public file sharing platform Home Upload Categories About

Warning! Use a VPN When Downloading Torrents!
Your IP Address is . Location is
Avoid LAWSUITS and FINES! Hide your IP ADDRESS with a VPN!
We strongly recommend using Trust.Zone VPN to anonymize your torrenting. It's FREE!
Get VPN Now for FREE!

The Great Mouse Detective 1986 720p BluRay H264 AAC-RARBG

DOWNLOAD TORRENT DOWNLOAD DOWNLOAD ANONYMOUS

Posted on December 20, 2015 in Movies » Misc , verified torrent

Size: 921.3 MB , Seeds: 25 , Peers: 2 ( Updated June 6, 2016 - Refresh )

* Download via Magnet Link , * To download files you need a Bittorrent Client , * How to download torrents from Bit Torrent Scene?

Loading...

Internal Files

The.Great.Mouse.Detective.1986.720p.BluRay.H264.AAC-RARBG
RARBG.COM.mp4   992.93 KB
RARBG.COM.txt   34 Byte
English.srt   63.62 KB
The.Great.Mouse.Detective.1986.720p.BluRay.H264.AAC-RARBG.mp4   919.73 MB
The.Great.Mouse.Detective.1986.720p.BluRay.H264.AAC-RARBG.nfo   3.97 KB

Hash Code

9a5e6e24b905f66795901f646182df13fc9a9af9

Description



https://rarbg.to

The.Great.Mouse.Detective.1986.720p.BluRay.H264.AAC-RARBG



SCREENSHOT

Screens :



SCREENSHOT



SCREENSHOT



SCREENSHOT



SCREENSHOT



SCREENSHOT

Mediainfo :



Video

ID : 1

Format : AVC

Format/Info : Advanced Video Codec

Format profile : High@L4.1

Format settings, CABAC : Yes

Format settings, ReFrames : 4 frames

Codec ID : avc1

Codec ID/Info : Advanced Video Coding

Duration : 1h 14mn

Bit rate : 1 500 Kbps

Width : 1 280 pixels

Height : 720 pixels

Display aspect ratio : 16:9

Frame rate mode : Constant

Frame rate : 23.976 (23976/1000) fps

Color space : YUV

Chroma subsampling : 4:2:0

Bit depth : 8 bits

Scan type : Progressive

Bits/(Pixel*Frame) : 0.068

Stream size : 797 MiB (87%)

Writing library : x264 core 148 r2638M 7599210

Encoding settings : cabac=1 / ref=4 / deblock=1:-1:-1 / analyse=0x3:0x113 / me=umh / subme=9 / psy=1 / psy_rd=1.00:0.15 / mixed_ref=1 / me_range=24 / chroma_me=1 / trellis=2 / 8x8dct=1 / cqm=0 / deadzone=21,11 / fast_pskip=1 / chroma_qp_offset=-3 / threads=32 / lookahead_threads=4 / sliced_threads=0 / nr=0 / decimate=1 / interlaced=0 / bluray_compat=0 / constrained_intra=0 / bframes=3 / b_pyramid=2 / b_adapt=2 / b_bias=0 / direct=3 / weightb=1 / open_gop=0 / weightp=2 / keyint=250 / keyint_min=25 / scenecut=40 / intra_refresh=0 / rc_lookahead=50 / rc=2pass / mbtree=1 / bitrate=1500 / ratetol=1.0 / qcomp=0.60 / qpmin=0 / qpmax=69 / qpstep=4 / cplxblur=20.0 / qblur=0.5 / vbv_maxrate=31250 / vbv_bufsize=31250 / nal_hrd=none / filler=0 / ip_ratio=1.40 / aq=3:1.00

Encoded date : UTC 2015-12-20 16:02:26

Tagged date : UTC 2015-12-20 16:02:26



Audio

ID : 2

Format : AAC

Format/Info : Advanced Audio Codec

Format profile : LC

Codec ID : 40

Duration : 1h 14mn

Bit rate mode : Constant

Bit rate : 224 Kbps

Channel(s) : 2 channels

Channel(s)_Original : 6 channels

Channel positions : Front: L C R, Side: L R, LFE

Sampling rate : 48.0 KHz

Frame rate : 46.875 fps (1024 spf)

Compression mode : Lossy

Stream size : 119 MiB (13%)

Language : English

Default : Yes

Alternate group : 1

Encoded date : UTC 2015-12-20 16:02:26

Tagged date : UTC 2015-12-20 16:02:26






Torrent location

http://kat.cr/the-great-mouse-detective-1986-720p-bluray-h264-aac-rarbg-t11786253.html

Trackers

Refresh Leechers : Updated June 6, 2016

1. udp://tracker.coppersurfer.tk:6969/announce

2. udp://tracker.openbittorrent.com:80/announce

3. udp://glotorrents.pw:6969/announce

4. udp://tracker.publicbt.com:80/announce

5. http://tracker.trackerfix.com/announce

6. udp://tracker.opentrackr.org:1337/announce

7. udp://9.rarbg.me:2710/announce

8. udp://9.rarbg.to:2710/announce

Comments

You must log in to add a comment.

Embed Code

Sharing Widget

Related torrents

FILENAME SIZE SEEDS PEERS ADDED UPD
[i] The Great Mouse Detective 1986 1080p BluRay x264-PSYCHD
posted by hotpena in Movies - Animation
5.46 GB 6 2 1 year 9 months
[i] The Great Mouse Detective (1986) 1080p 5.1 Blu-ray 1.5 GB 2 0 2 years 7 months
[i] The.Great.Mouse.Detective.1986.720p.BluRay.x264-Japhson [PublicH 3.27 GB 1 0 4 years 1 year
[i] Great Mouse Detective, The (1986) Marjan TBS 4.34 GB 0 0 6 years 1 year
[i] The Great Mouse Detective 1986 PROPER BRRip x264 AAC-UNiQUE 1.43 GB 0 1 4 years 1 year
[i] The.Great.Mouse.Detective.1986.1080p.BluRay.x264-Japhson [Public 5.46 GB 0 0 4 years 1 year
[i] The Great Mouse Detective 1986 PROPER BRRip x264 AAC-UNiQUE 1.43 GB 0 3 4 years 1 year
[i] The.Great.Mouse.Detective.1986.PROPER.1080p.BluRay.x264-PSYCHD [ 5.47 GB 0 4 4 years 1 year
[i] Basil.The.Great.Mouse.Detective.1992 2.38 GB 0 0 4 years 1 year
[i] The.Great.Mouse.Detective.1986.720p.BluRay.x264-EbP [PublicHD] 4 GB 0 3 3 years 1 year

Top Movies ( auto generated report )

FILENAME SIZE SEEDS PEERS ADDED UPD
[i] Doctor Strange (2016) [1080p] [YTS AG] 1.75 GB 7706 2908 1 week 5 days
[i] Underworld.Blood.Wars.2016.1080p.WEB-DL.DD5.1.H264-FGT-[rarbg.to].torrent 3.17 GB 10409 3709 1 week 1 week
[i] Moana 2016 1080p BluRay x264 DTS-JYK 2.7 GB 8183 4076 1 week 1 week
[i] A.Dogs.Purpose.2017.HDCAM.XviD.MrGrey.torrent 851.82 MB 7088 5617 1 week 1 week
[i] Brice 3 2016 FRENCH BDRip XviD-EXTREME 695.32 MB 6417 2964 1 week 1 week
[i] Allied (2016) [720p] [YTS AG] 915.32 MB 5329 6143 1 week 1 week
[i] Doctor Strange (2016) [720p] [YTS AG] 844.93 MB 5039 9103 1 week 1 week
[i] Moana.2016.720p.BRRip.950MB.MkvCage.mkv 953.3 MB 4712 20413 1 week 1 week
[i] Allied (2016) [1080p] [YTS AG] (1) 1.89 GB 4331 5906 1 week 1 week
[i] Doctor.Strange.2016.1080p.WEB-DL.DD5.1.H264-FGT 3.96 GB 3540 5860 1 week 1 week
advertising ( remove )