The HomesMan(2014)Mp-4[DaScubaDude]

DOWNLOAD TORRENT DOWNLOAD DOWNLOAD ANONYMOUS

Posted on September 14, 2017 in Movies » Misc

Size: 1.27 GB , Seeds: 0 , Peers: 2 ( Updated September 20, 2017 )

* Download via Magnet Link , * To download files you need a Bittorrent Client , * How to download torrents from Bit Torrent Scene?

Scrape History ( seeds + peers )

Internal Files

HomesMan
screenshot049.jpg   30.17 KB
screenshot052.jpg   30.42 KB
screenshot050.jpg   40.71 KB
screenshot051.jpg   47.53 KB
screenshot053.jpg   57.92 KB
Read me.rtf   1.26 MB
HOMESMAN_Title48.mp4   1.27 GB

Hash Code

fe0832ddc4b42855325f9ea4568289965f542fd1

Description

SCREENSHOT
[youtube]u6uQkoXKGxM[/youtube]

The Homesman (2014)

R | 2h 2min | Drama, Western | 18 May 2014 (France)

Three women who have been driven mad by pioneer life are to be transported across the country by covered wagon by the pious, independent-minded Mary Bee Cuddy, who in turn employs low-life drifter George Briggs to assist her.

Director: Tommy Lee Jones

Writers: Tommy Lee Jones (screenplay), Kieran Fitzgerald (screenplay) |
Stars: Tommy Lee Jones, Hilary Swank, Grace Gummer |


General

Complete name : HomesMan\HOMESMAN_Title48.mp4

Format : MPEG-4

Format profile : Base Media

Codec ID : isom (isom/iso2/avc1/mp41)

File size : 1.27 GiB

Duration : 2 h 3 min

Overall bit rate : 1 474 kb/s

Movie name : HOMESMAN

Genre : Western

Writing application : Lavf54.6.100


Video

ID : 1

Format : AVC

Format/Info : Advanced Video Codec

Format profile : [email protected]
Format settings, CABAC : No

Format settings, RefFrames : 6 frames

Codec ID : avc1

Codec ID/Info : Advanced Video Coding

Duration : 2 h 3 min

Bit rate : 1 193 kb/s

Width : 720 pixels

Height : 404 pixels

Display aspect ratio : 16:9

Frame rate mode : Constant

Frame rate : 29.970 (30000/1001) FPS

Color space : YUV

Chroma subsampling : 4:2:0

Bit depth : 8 bits

Scan type : Progressive

Bits/(Pixel*Frame) : 0.137

Stream size : 1.03 GiB (81%)


Audio

ID : 2

Format : AAC

Format/Info : Advanced Audio Codec

Format profile : LC

Codec ID : 40

Duration : 2 h 3 min

Bit rate mode : Constant

Bit rate : 274 kb/s

Channel(s) : 2 channels

Channel(s)_Original : 6 channels

Channel positions : Front: L C R, Side: L R, LFE

Sampling rate : 44.1 kHz

Frame rate : 43.066 FPS (1024 spf)

Compression mode : Lossy

Stream size : 242 MiB (19%)

Default : Yes

Alternate group : 1


Torrent location

https://www.1337x.to/torrent/2440231/The-HomesMan-2014-Mp-4-DaScubaDude/

Trackers

Refresh Leechers : Updated September 20, 2017

1. http://bigfoot1942.sektori.org:6969/announce

2. http://tracker2.wasabii.com.tw:6969/announce

3. http://bt.artvid.ru:6969/announce

4. http://tracker.opentrackr.org/announce

5. http://announce.torrentsmd.com:6969/announce

6. http://tracker.trackerfix.com/announce

7. http://tracker.opentrackr.org/announce

8. udp://explodie.org:6969/announce

9. udp://mgtracker.org:6969/announce

10. udp://asnet.pw:2710/announce

11. udp://tracker.mgtracker.org:2710/announce

12. udp://tracker4.piratux.com:6969/announce

13. udp://tracker.trackerfix.com:80/announce

14. udp://tracker.pomf.se:80/announce

15. udp://tracker.x4w.co:6969/announce

16. udp://castradio.net:6969/announce

17. udp://ipv4.tracker.harry.lu:80/announce

18. udp://inferno.demonoid.ooo:3389/announce

19. udp://tracker.sktorrent.net:6969/announce

20. udp://tracker.blackunicorn.xyz:6969/announce

21. udp://tracker.internetwarriors.net:1337/announce

22. udp://torrent.gresille.org:80/announce

23. udp://public.popcorn-tracker.org:6969/announce

24. udp://p4p.arenabg.ch:1337/announce

25. udp://glotorrents.pw:6969/announce

26. udp://9.rarbg.to:2710/announce

27. udp://tracker.vanitycore.co:6969/announce

28. udp://eddie4.nl:6969/announce

29. udp://tracker.trackerfix.com:80/announce

30. udp://tracker.pirateparty.gr:6969/announce

31. udp://9.rarbg.me:2710/announce

32. udp://tracker.zer0day.to:1337/announce

33. udp://tracker.opentrackr.org:1337/announce

34. udp://tracker.coppersurfer.tk:6969/announce

35. udp://tracker.leechers-paradise.org:6969/announce

36. http://tracker2.itzmx.com:6961/announce

37. http://tracker1.wasabii.com.tw:6969/announce

38. udp://9.rarbg.to:2710/announce

39. udp://tracker.coppersurfer.tk:6969/announce

40. udp://tracker.opentrackr.org:1337/announce

41. UDP://EDDIE4.NL:6969/announce

42. UDP://TRACKER.ZER0DAY.TO:1337/announce

43. UDP://TRACKER.OPENTRACKR.ORG:1337/announce

44. UDP://TRACKER.COPPERSURFER.TK:6969/announce

45. UDP://TRACKER.LEECHERS-PARADISE.ORG:6969/announce

Comments

You must log in to add a comment.

Embed Code

Sharing Widget

Top Movies ( auto generated report )

FILENAME SIZE SEEDS PEERS ADDED UPD
[i] Transformers The Last Knight (2017) [1080p] [YTS AG] 2.36 GB 12083 4702 4 days 4 hours
[i] Transformers The Last Knight (2017) [720p] [YTS AG] 1.12 GB 9591 5859 4 days 1 day
[i] Despicable Me 3 (2017) [1080p] [YTS AG] 1.36 GB 8719 4076 1 day 5 hours
[i] Despicable Me 3 (2017) [720p] [YTS AG] 658.36 MB 7675 4221 1 day 5 hours
[i] 47 Meters Down (2017) [720p] [YTS AG] 647.36 MB 3054 830 4 days 3 hours
[i] 47 Meters Down (2017) [1080p] [YTS AG] 1.35 GB 3744 2147 4 days 3 days
[i] 2:22 (2017) [720p] [YTS AG] 731.8 MB 3405 2452 4 days 3 days
[i] 2:22 (2017) [1080p] [YTS AG] 1.51 GB 3227 1956 4 days 3 days
[i] A.Ghost.Story.2017.1080p.WEB-DL.DD5.1.H264-FGT [rarbg] 3.52 GB 903 609 4 hours 2 hours
[i] Annabelle.Creation.2017.HC.HDRip.XviD.AC3-EVO 1.4 GB 2928 3010 5 days 4 days