Your IP Address is . Location is Your ISP and Government can track your torrent activity! Hide your IP with a VPN!

The Polka King 2018 HDRip XviD AC3 ESub LLG

DOWNLOAD TORRENT DOWNLOAD DOWNLOAD ANONYMOUS

Posted by LifeLongg •252 on January 13, 2018 in Movies » Drama , verified torrent

Size: 784.39 MB , Seeds: 6 , Peers: 4 ( Updated January 14, 2018 - Refresh )

* Download via Magnet Link , * To download files you need a Bittorrent Client , * How to download torrents from Bit Torrent Scene?

Scrape History ( seeds + peers )

Internal Files

The.Polka.King.2018.HDRip.XviD.AC3.ESub.LLG
English.srt   112.67 KB
Sample.ts   6.75 MB
The.Polka.King.2018.HDRip.XviD.AC3.ESub.LLG.mp4   777.52 MB

Hash Code

767dab691cbfad8ee19fe6a9ee2bc2da6de58460

Description

******************************Thumbnail:**********************

SCREENSHOT

******************************Screenshots:********************

Screenshot 1

Screenshot 2

Screenshot 3

Screenshot 4

Screenshot 5

Screenshot 6

Screenshot 7

Screenshot 8

Screenshot 9

Screenshot 0

**************************************************************

Complete name : The.Polka.King.2017.HDRip.XviD.AC3.ESub.LLG.mp4
Format : MPEG-4
Format profile : Base Media
Codec ID : isom (isom/iso2/avc1/mp41)
File size : 778 MiB
Duration : 1 h 34 min
Overall bit rate : 1 156 kb/s
Writing application : Lavf57.56.101

Video
ID : 1
Format : AVC
Format/Info : Advanced Video Codec
Format profile : High@L3
Format settings : CABAC / 4 Ref Frames
Format settings, CABAC : Yes
Format settings, RefFrames : 4 frames
Codec ID : avc1
Codec ID/Info : Advanced Video Coding
Duration : 1 h 34 min
Bit rate : 900 kb/s
Width : 720 pixels
Height : 304 pixels
Display aspect ratio : 2.35:1
Frame rate mode : Constant
Frame rate : 23.976 (23976/1000) FPS
Color space : YUV
Chroma subsampling : 4:2:0
Bit depth : 8 bits
Scan type : Progressive
Bits/(Pixel*Frame) : 0.171
Stream size : 602 MiB (77%)


Audio
ID : 2
Format : AC-3
Format/Info : Audio Coding 3
Codec ID : ac-3
Duration : 1 h 34 min
Bit rate mode : Constant
Bit rate : 256 kb/s
Channel(s) : 6 channels
Channel positions : Front: L C R, Side: L R, LFE
Sampling rate : 48.0 kHz
Frame rate : 31.250 FPS (1536 SPF)
Bit depth : 16 bits
Compression mode : Lossy
Stream size : 172 MiB (22%)
Service kind : Complete Main
Default : Yes
Alternate group : 1

Trackers

Refresh Leechers : Updated January 14, 2018

1. udp://tracker.openbittorrent.com:80/announce

2. udp://tracker.opentrackr.org:1337/announce

Comments

You must log in to add a comment.

Embed Code

Sharing Widget

Related torrents

FILENAME SIZE SEEDS PEERS ADDED UPD
[i] The.Polka.King.2018.HDRip.XviD.AC3-EVO 1.4 GB 81 23 6 days 18 min
[i] The.Polka.King.2018.720p.WEBRip.x264-STRiFE[EtHD] 2.1 GB 49 10 6 days 4 hours
[i] The.Polka.King.2018.HDRip.XviD.AC3-EVO[EtMovies] 1.41 GB 5 1 6 days 2 hours
[i] The.Polka.King.2018.HDRip.XviD.AC3-EVO 1.4 GB 4 2 6 days 3 hours
[i] The.Polka.King.2018.HDRip.x264.AC3-Manning 1.3 GB 3 1 6 days 23 min

Top Movies ( auto generated report )

FILENAME SIZE SEEDS PEERS ADDED UPD
[i] Geostorm (2017) [1080p] [YTS AG] 1.67 GB 5754 3112 1 day 9 hours
[i] Geostorm (2017) [720p] [YTS AG] 812.63 MB 5412 3658 1 day 9 hours
[i] Jigsaw (2017) [1080p] [YTS AG] 1.4 GB 4322 2711 1 day 20 hours
[i] Jigsaw (2017) [720p] [YTS AG] 675.39 MB 3922 2227 1 day 20 hours
[i] Mollys Game 2017 DVDScr XVID AC3 HQ Hive CM8 1.79 GB 2207 1893 1 day 22 hours
[i] Darkest.Hour.2017.DVDScr.XVID.AC3.HQ.Hive-CM8 1.92 GB 2179 593 6 days 12 hours
[i] Professor Marston and the Wonder Women (2017) [720p] [YTS AG] 791.43 MB 2159 1179 4 days 3 days
[i] Acts.of.Violence.2018.WEB-DL.x264-FGT [rarbg] 760.65 MB 998 151 6 days 13 min
[i] Acts of Violence.2018.HDRip.XviD.AC3-EVO 1.42 GB 1102 380 6 days 13 min
[i] Thank You for Your Service (2017) [720p] [YTS AG] 801.88 MB 1658 1072 3 days 2 days